質問をすることでしか得られない、回答やアドバイスがある。

15分調べてもわからないことは、質問しよう!

ただいまの
回答率

88.59%

ffmpeg に -crf オプションをつけてもCodec AVOption crf has not been used for any streamと言われて効果がない

解決済

回答 1

投稿 編集

  • 評価
  • クリップ 0
  • VIEW 1,490

ruei

score 275

gifからmp4への変換としてlinuxのffmpegを使用しています。

ffmpeg -i main.gif -crf 1 main.mp4


とすると、次のような表示の後に、main.mp4が出力されているのですが、
動画の品質を定めるオプションである-crfの数字を変化しても、動画の劣化具合が変化しません。

ffmpeg version 4.0 Copyright (c) 2000-2018 the FFmpeg developers
  built with gcc 7.2.0 (crosstool-NG fa8859cb)
  configuration: --prefix=/xxx/anaconda3 --cc=/tmp/build/80754af9/ffmpeg_1526323631431/_build_env/bin/x86_64-conda_cos6-linux-gnu-cc --disable-doc --enable-shared --enable-static --enable-zlib --enable-pic --enable-gpl --enable-version3 --disable-nonfree --enable-hardcoded-tables --enable-avresample --enable-libfreetype --disable-openssl --disable-gnutls --enable-libvpx --enable-pthreads --enable-libopus --enable-postproc --disable-libx264
  libavutil      56. 14.100 / 56. 14.100
  libavcodec     58. 18.100 / 58. 18.100
  libavformat    58. 12.100 / 58. 12.100
  libavdevice    58.  3.100 / 58.  3.100
  libavfilter     7. 16.100 /  7. 16.100
  libavresample   4.  0.  0 /  4.  0.  0
  libswscale      5.  1.100 /  5.  1.100
  libswresample   3.  1.100 /  3.  1.100
  libpostproc    55.  1.100 / 55.  1.100
Input #0, gif, from 'main.gif':
  Duration: N/A, bitrate: N/A
    Stream #0:0: Video: gif, bgra, 1000x1000, 10 fps, 10 tbr, 100 tbn, 100 tbc
Codec AVOption crf (Select the quality for constant quality mode) specified for output file #0 (main.mp4) has not been used for any stream. The most likely reason is either wrong type (e.g. a video option with no video streams) or that it is a private option of some encoder which was not actually used for any stream.
Stream mapping:
  Stream #0:0 -> #0:0 (gif (native) -> mpeg4 (native))
Press [q] to stop, [?] for help
Output #0, mp4, to 'main.mp4':
  Metadata:
    encoder         : Lavf58.12.100
    Stream #0:0: Video: mpeg4 (mp4v / 0x7634706D), yuv420p, 1000x1000, q=2-31, 200 kb/s, 10 fps, 10240 tbn, 10 tbc
    Metadata:
      encoder         : Lavc58.18.100 mpeg4
    Side data:
      cpb: bitrate max/min/avg: 0/0/200000 buffer size: 0 vbv_delay: -1
frame=  250 fps= 93 q=24.2 Lsize=     899kB time=00:00:24.90 bitrate= 295.6kbits/s speed=9.28x
video:897kB audio:0kB subtitle:0kB other streams:0kB global headers:0kB muxing overhead: 0.211386%


よく見ると、中央に下のような怪しい表示があります。

Codec AVOption crf (Select the quality for constant quality mode) specified for output file #0 (main.mp4) has not been used for any stream. The most likely reason is either wrong type (e.g. a video option with no video streams) or that it is a private option of some encoder which was not actually used for any stream.
Stream mapping:

解決法をご存知の方、ご教示ください。

環境は次の通りです。

ffmpeg -version
ffmpeg version 4.0 Copyright (c) 2000-2018 the FFmpeg developers
built with gcc 7.2.0 (crosstool-NG fa8859cb)
configuration: --prefix=/xxx/anaconda3 --cc=/tmp/build/80754af9/ffmpeg_1526323631431/_build_env/bin/x86_64-conda_cos6-linux-gnu-cc --disable-doc --enable-shared --enable-static --enable-zlib --enable-pic --enable-gpl --enable-version3 --disable-nonfree --enable-hardcoded-tables --enable-avresample --enable-libfreetype --disable-openssl --disable-gnutls --enable-libvpx --enable-pthreads --enable-libopus --enable-postproc --disable-libx264
libavutil      56. 14.100 / 56. 14.100
libavcodec     58. 18.100 / 58. 18.100
libavformat    58. 12.100 / 58. 12.100
libavdevice    58.  3.100 / 58.  3.100
libavfilter     7. 16.100 /  7. 16.100
libavresample   4.  0.  0 /  4.  0.  0
libswscale      5.  1.100 /  5.  1.100
libswresample   3.  1.100 /  3.  1.100
libpostproc    55.  1.100 / 55.  1.100
  • 気になる質問をクリップする

    クリップした質問は、後からいつでもマイページで確認できます。

    またクリップした質問に回答があった際、通知やメールを受け取ることができます。

    クリップを取り消します

  • 良い質問の評価を上げる

    以下のような質問は評価を上げましょう

    • 質問内容が明確
    • 自分も答えを知りたい
    • 質問者以外のユーザにも役立つ

    評価が高い質問は、TOPページの「注目」タブのフィードに表示されやすくなります。

    質問の評価を上げたことを取り消します

  • 評価を下げられる数の上限に達しました

    評価を下げることができません

    • 1日5回まで評価を下げられます
    • 1日に1ユーザに対して2回まで評価を下げられます

    質問の評価を下げる

    teratailでは下記のような質問を「具体的に困っていることがない質問」、「サイトポリシーに違反する質問」と定義し、推奨していません。

    • プログラミングに関係のない質問
    • やってほしいことだけを記載した丸投げの質問
    • 問題・課題が含まれていない質問
    • 意図的に内容が抹消された質問
    • 過去に投稿した質問と同じ内容の質問
    • 広告と受け取られるような投稿

    評価が下がると、TOPページの「アクティブ」「注目」タブのフィードに表示されにくくなります。

    質問の評価を下げたことを取り消します

    この機能は開放されていません

    評価を下げる条件を満たしてません

    評価を下げる理由を選択してください

    詳細な説明はこちら

    上記に当てはまらず、質問内容が明確になっていない質問には「情報の追加・修正依頼」機能からコメントをしてください。

    質問の評価を下げる機能の利用条件

    この機能を利用するためには、以下の事項を行う必要があります。

質問への追記・修正、ベストアンサー選択の依頼

  • hohokihai

    2018/10/16 20:11

    動画の画質を良くしたいのですか?palettegenは試しましたか?

    キャンセル

  • ruei

    2018/10/16 22:45

    試していないです。ググって試そうと思っていたのですが、ほかの方の提示された方法で解決できてしまいました。ありがとうございます。

    キャンセル

回答 1

checkベストアンサー

+1

  Stream #0:0 -> #0:0 (gif (native) -> mpeg4 (native))

と表示されていますので、MPEG-4 Part 2でエンコードされていますが、このエンコーダーはcrfオプションはサポートしていないということだと思います。

Encode/MPEG-4 | FFmpeg Wiki

投稿

  • 回答の評価を上げる

    以下のような回答は評価を上げましょう

    • 正しい回答
    • わかりやすい回答
    • ためになる回答

    評価が高い回答ほどページの上位に表示されます。

  • 回答の評価を下げる

    下記のような回答は推奨されていません。

    • 間違っている回答
    • 質問の回答になっていない投稿
    • スパムや攻撃的な表現を用いた投稿

    評価を下げる際はその理由を明確に伝え、適切な回答に修正してもらいましょう。

  • 2018/10/16 22:43

    ありがとうございます。提示してくださったドキュメントに従って
    ffmpeg -i hoge.gif -qscale:v 1 hoge.mp4
    とすると、画質を向上することができました。

    キャンセル

15分調べてもわからないことは、teratailで質問しよう!

  • ただいまの回答率 88.59%
  • 質問をまとめることで、思考を整理して素早く解決
  • テンプレート機能で、簡単に質問をまとめられる

関連した質問

同じタグがついた質問を見る

  • トップ
  • Linuxに関する質問
  • ffmpeg に -crf オプションをつけてもCodec AVOption crf has not been used for any streamと言われて効果がない