質問をすることでしか得られない、回答やアドバイスがある。

15分調べてもわからないことは、質問しよう!

ただいまの
回答率

88.03%

FFmpegで音声ファイル変換時の標準出力から出力ファイルの再生時間を取得したい

解決済

回答 1

投稿

  • 評価
  • クリップ 0
  • VIEW 2,119

score 19

標準出力の文字列の中から特定の情報を抽出したいです

現在、Linux(Raspberry Pi)でffmpegを利用して音声ファイル変換をしています。そのときコマンドラインに、自動的にファイルの変換情報が出力されるのですが、この中から変換後のファイルの再生時間である「time=〇〇」の〇〇の部分だけを抜き出したいです。(出力の下から2行目です)

 発生している問題

ffmpegのコマンドをパイプでsed, awk, grepコマンドなどと繋げば取得可能かと思い試してみたのですが、強制的に全ての情報が出力されてしまいます。

 問題の出力

一部抜粋
Input #0, s16be, from 'spch.raw':
  Duration: 00:00:02.99, bitrate: 255 kb/s
    Stream #0:0: Audio: pcm_s16be, 16000 Hz, mono, s16, 256 kb/s
Output #0, wav, to 'speech2.wav':
  Metadata:
    ISFT            : Lavf57.56.101
    Stream #0:0: Audio: pcm_s16le ([1][0][0][0] / 0x0001), 16000 Hz, mono, s16, 256 kb/s
    Metadata:
      encoder         : Lavc57.64.101 pcm_s16le
Stream mapping:
  Stream #0:0 -> #0:0 (pcm_s16be (native) -> pcm_s16le (native))
Press [q] to stop, [?] for help
size=      93kB time=00:00:02.98 bitrate= 256.2kbits/s speed= 343x    
video:0kB audio:93kB subtitle:0kB other streams:0kB global headers:0kB muxing overhead: 0.081537%

 試したこと

ffmpeg -y -f s16be -ar 16000 -ac 1 -i spch.raw -ar 16000 -ac 1 -acodec pcm_s16le  speech.wav | [ここに次のようなコマンドを入力しました]


コマンド:

sed -n 2p (この行数は適当)
rep “time”
tail -2

また、subprocess.run()などを使った簡易的なプログラムも作ってみましたが、うまく動かすことができませんでした。

なお、ffprobeを利用して既存のwaveファイルからの情報取得はできました。

ffprobe -i speech.wav -loglevel quiet -show_entries format=duration | sed -n 2p | sed -e "s/duration=//"


これと同様のことをffmpegで実装したいです。変換した後に情報を取得すると時間がかかる上、二度手間になってしまうと考えたため、変換時にまとめて行えるようしたいです。

解決策を教えていただけると助かります。どうぞよろしくお願いいたします。

  • 気になる質問をクリップする

    クリップした質問は、後からいつでもマイページで確認できます。

    またクリップした質問に回答があった際、通知やメールを受け取ることができます。

    クリップを取り消します

  • 良い質問の評価を上げる

    以下のような質問は評価を上げましょう

    • 質問内容が明確
    • 自分も答えを知りたい
    • 質問者以外のユーザにも役立つ

    評価が高い質問は、TOPページの「注目」タブのフィードに表示されやすくなります。

    質問の評価を上げたことを取り消します

  • 評価を下げられる数の上限に達しました

    評価を下げることができません

    • 1日5回まで評価を下げられます
    • 1日に1ユーザに対して2回まで評価を下げられます

    質問の評価を下げる

    teratailでは下記のような質問を「具体的に困っていることがない質問」、「サイトポリシーに違反する質問」と定義し、推奨していません。

    • プログラミングに関係のない質問
    • やってほしいことだけを記載した丸投げの質問
    • 問題・課題が含まれていない質問
    • 意図的に内容が抹消された質問
    • 過去に投稿した質問と同じ内容の質問
    • 広告と受け取られるような投稿

    評価が下がると、TOPページの「アクティブ」「注目」タブのフィードに表示されにくくなります。

    質問の評価を下げたことを取り消します

    この機能は開放されていません

    評価を下げる条件を満たしてません

    評価を下げる理由を選択してください

    詳細な説明はこちら

    上記に当てはまらず、質問内容が明確になっていない質問には「情報の追加・修正依頼」機能からコメントをしてください。

    質問の評価を下げる機能の利用条件

    この機能を利用するためには、以下の事項を行う必要があります。

回答 1

checkベストアンサー

0

masayasasaki96さん、

ffmpegで取得しようとしている出力は、標準エラー出力なので、一度、標準出力にリダイレクト(2>&1)してから、パイプして、コマンドに渡します。

$ # 例:
$ ffmpeg -y -f s16be -ar 16000 -ac 1 -i test.raw -ar 16000 -ac 1 -acodec pcm_s16le  speech.wav  2>&1 | grep "time"
size=     106kB time=00:00:03.40 bitrate= 256.2kbits/s speed= 359x    
$

投稿

  • 回答の評価を上げる

    以下のような回答は評価を上げましょう

    • 正しい回答
    • わかりやすい回答
    • ためになる回答

    評価が高い回答ほどページの上位に表示されます。

  • 回答の評価を下げる

    下記のような回答は推奨されていません。

    • 間違っている回答
    • 質問の回答になっていない投稿
    • スパムや攻撃的な表現を用いた投稿

    評価を下げる際はその理由を明確に伝え、適切な回答に修正してもらいましょう。

  • 2018/09/26 10:15

    mt08さん、早速のご回答をありがとうございました。
    標準エラー出力というものだったんですね。とても勉強になりました。
    お陰さまで無事解決いたしました。またよろしくお願いいたします!

    キャンセル

15分調べてもわからないことは、teratailで質問しよう!

  • ただいまの回答率 88.03%
  • 質問をまとめることで、思考を整理して素早く解決
  • テンプレート機能で、簡単に質問をまとめられる

関連した質問

同じタグがついた質問を見る