質問編集履歴

5 誤字の修正

y.nakamura

y.nakamura score 186

2018/07/02 14:18  投稿

FFmpegでMPEG-2 TTSの静止画を作成したい
### 前提・実現したいこと
ネットワークエンコーダがマルチキャスト配信しているH.264の映像データを、PCのFFmpegで受信して静止画を作成したいと考えています。
エンコーダの設定でコンテナをMPEG-2 TSにすると正常に作成できますが、MPEG-2 TTSにすると作成できません。
FFmpegのオプション等で作成可能なのでしょうか。ご教授お願い致します。
### 発生している問題・エラーメッセージ
```
> ffmpeg -i udp://@239.203.0.80:29000 -ss 1 -t 1 -r 5 -f image2 %02d.jpg
[mpeg @ 0000000001c6eec0] Format mpeg detected only with low score of 25, misdetection possible!
Input #0, mpeg, from 'udp://@239.203.0.80:29000':
 Duration: N/A, start: 23.63250, bitrate: 128kb/s
   Stream #0:0[0x1c0]: Audio: mp2, 48000 Hz, stereo, s16p, 128 kb/s
Output #0, image2, to '%02d.jpg':
Output file #0 does not contain any stream
> ffmpeg -i udp://@239.203.0.80:29000
[mpeg @ 0000000001c6eec0] Format mpeg detected only with low score of 25, misdetection possible!
Input #0, mpeg, from 'udp://@239.203.0.80:29000':
 Duration: N/A, start: 241.024500, bitrate: 128kb/s
   Stream #0:0[0x1c0]: Audio: mp2, 48000 Hz, stereo, s16p, 128 kb/s
At least one output file must be specified
```
### 該当のソースコード
```
ffmpeg -i udp://@239.203.0.80:29000 -ss 1 -t 1 -r 5 -f image2 %02d.jpg
```
### 試したこと
公式で配布されているFFmpegの他、以下の記事を参考にビルドしたものでも試しましたが、結果は変わりませんでした。
[FFMPEG全部入り一撃インストールスクリプト
](http://www.hiroyuki.com/posts/2182665/)
### 補足情報(FW/ツールのバージョンなど)
#### 映像情報
- エンコーダ = MNB780ENC(kubotek)
- 映像 = H.264
- コンテナ = MPEG-2 TTS
- ペイロードタイプ = 103(コンテナをTTSにすると自動で設定
- パック数 = 6(コンテナをTTSにすると自動で設定
- ペイロードタイプ = 103(コンテナをTTSにすると自動で設定される
- パック数 = 6(コンテナをTTSにすると自動で設定される
#### 動作環境
- Windows 8.1 Pro
- FFmpeg N-82092
  • ネットワーク

    1137 questions

    ネットワークとは、複数のコンピューター間を接続する技術です。インターネットが最も主流なネットワークの形態で、TCP/IP・HTTP・DNSなどの様々なプロトコルや、ルータやサーバーなどの様々な機器の上に成り立っています。

  • FFmpeg

    206 questions

    FFmpegは、動画と音声を交換できるフリーソフトウェアです。UNIX系OSから派生した、MS-DOSから操作するコマンドラインツールです。libavcodecやlibavformat、libswscale、libavfilterなどを含みます。ライセンスは、コンパイルの際のオプションによりLGPLもしくはGPLに決定されます。対応コーデックや使用できるオプションが多く、幅広く利用されています。

4 タグを追加

y.nakamura

y.nakamura score 186

2018/06/27 17:41  投稿

FFmpegでMPEG-2 TTSの静止画を作成したい
### 前提・実現したいこと
ネットワークエンコーダがマルチキャスト配信しているH.264の映像データを、PCのFFmpegで受信して静止画を作成したいと考えています。
エンコーダの設定でコンテナをMPEG-2 TSにすると正常に作成できますが、MPEG-2 TTSにすると作成できません。
FFmpegのオプション等で作成可能なのでしょうか。ご教授お願い致します。
### 発生している問題・エラーメッセージ
```
> ffmpeg -i udp://@239.203.0.80:29000 -ss 1 -t 1 -r 5 -f image2 %02d.jpg
[mpeg @ 0000000001c6eec0] Format mpeg detected only with low score of 25, misdetection possible!
Input #0, mpeg, from 'udp://@239.203.0.80:29000':
Duration: N/A, start: 23.63250, bitrate: 128kb/s
Stream #0:0[0x1c0]: Audio: mp2, 48000 Hz, stereo, s16p, 128 kb/s
Output #0, image2, to '%02d.jpg':
Output file #0 does not contain any stream
> ffmpeg -i udp://@239.203.0.80:29000
[mpeg @ 0000000001c6eec0] Format mpeg detected only with low score of 25, misdetection possible!
Input #0, mpeg, from 'udp://@239.203.0.80:29000':
Duration: N/A, start: 241.024500, bitrate: 128kb/s
Stream #0:0[0x1c0]: Audio: mp2, 48000 Hz, stereo, s16p, 128 kb/s
At least one output file must be specified
```
### 該当のソースコード
```
ffmpeg -i udp://@239.203.0.80:29000 -ss 1 -t 1 -r 5 -f image2 %02d.jpg
```
### 試したこと
公式で配布されているFFmpegの他、以下の記事を参考にビルドしたものでも試しましたが、結果は変わりませんでした。
[FFMPEG全部入り一撃インストールスクリプト
](http://www.hiroyuki.com/posts/2182665/)
### 補足情報(FW/ツールのバージョンなど)
#### 映像情報
- エンコーダ = MNB780ENC(kubotek)
- 映像 = H.264
- コンテナ = MPEG-2 TTS
- ペイロードタイプ = 103(コンテナをTTSにすると自動で設定)
- パック数 = 6(コンテナをTTSにすると自動で設定)
#### 動作環境
- Windows 8.1 Pro
- FFmpeg N-82092
  • FFmpeg

    206 questions

    FFmpegは、動画と音声を交換できるフリーソフトウェアです。UNIX系OSから派生した、MS-DOSから操作するコマンドラインツールです。libavcodecやlibavformat、libswscale、libavfilterなどを含みます。ライセンスは、コンパイルの際のオプションによりLGPLもしくはGPLに決定されます。対応コーデックや使用できるオプションが多く、幅広く利用されています。

  • ネットワーク

    1137 questions

    ネットワークとは、複数のコンピューター間を接続する技術です。インターネットが最も主流なネットワークの形態で、TCP/IP・HTTP・DNSなどの様々なプロトコルや、ルータやサーバーなどの様々な機器の上に成り立っています。

3 補足情報編集

y.nakamura

y.nakamura score 186

2018/06/26 15:49  投稿

FFmpegでMPEG-2 TTSの静止画を作成したい
### 前提・実現したいこと
ネットワークエンコーダがマルチキャスト配信しているH.264の映像データを、PCのFFmpegで受信して静止画を作成したいと考えています。
エンコーダの設定でコンテナをMPEG-2 TSにすると正常に作成できますが、MPEG-2 TTSにすると作成できません。
FFmpegのオプション等で作成可能なのでしょうか。ご教授お願い致します。
### 発生している問題・エラーメッセージ
```
> ffmpeg -i udp://@239.203.0.80:29000 -ss 1 -t 1 -r 5 -f image2 %02d.jpg
[mpeg @ 0000000001c6eec0] Format mpeg detected only with low score of 25, misdetection possible!
Input #0, mpeg, from 'udp://@239.203.0.80:29000':
 Duration: N/A, start: 23.63250, bitrate: 128kb/s
   Stream #0:0[0x1c0]: Audio: mp2, 48000 Hz, stereo, s16p, 128 kb/s
Output #0, image2, to '%02d.jpg':
Output file #0 does not contain any stream
> ffmpeg -i udp://@239.203.0.80:29000
[mpeg @ 0000000001c6eec0] Format mpeg detected only with low score of 25, misdetection possible!
Input #0, mpeg, from 'udp://@239.203.0.80:29000':
 Duration: N/A, start: 241.024500, bitrate: 128kb/s
   Stream #0:0[0x1c0]: Audio: mp2, 48000 Hz, stereo, s16p, 128 kb/s
At least one output file must be specified
```
### 該当のソースコード
```
ffmpeg -i udp://@239.203.0.80:29000 -ss 1 -t 1 -r 5 -f image2 %02d.jpg
```
### 試したこと
公式で配布されているFFmpegの他、以下の記事を参考にビルドしたものでも試しましたが、結果は変わりませんでした。
[FFMPEG全部入り一撃インストールスクリプト
](http://www.hiroyuki.com/posts/2182665/)
### 補足情報(FW/ツールのバージョンなど)
#### 映像情報
- エンコーダ = MNB780ENC(kubotek)
- 映像 = H.264
- コンテナ = MPEG-2 TTS
- ペイロードタイプ = 103(コンテナをTTSにすると自動で設定)  
- パック数 = 6(コンテナをTTSにすると自動で設定)
- ペイロードタイプ = 103(コンテナをTTSにすると自動で設定)  
#### 動作環境
- Windows 8.1 Pro
- FFmpeg N-82092
  • FFmpeg

    206 questions

    FFmpegは、動画と音声を交換できるフリーソフトウェアです。UNIX系OSから派生した、MS-DOSから操作するコマンドラインツールです。libavcodecやlibavformat、libswscale、libavfilterなどを含みます。ライセンスは、コンパイルの際のオプションによりLGPLもしくはGPLに決定されます。対応コーデックや使用できるオプションが多く、幅広く利用されています。

2 誤字を修正

y.nakamura

y.nakamura score 186

2018/06/25 15:25  投稿

FFmpegでMPEG-2 TTSの静止画を作成したい
### 前提・実現したいこと
ネットワークエンコーダがマルチキャスト配信している映像データを、PCのFFmpegで受信して静止画を作成したいと考えています。
映像はH.264で、エンコーダの設定でコンテナをMPEG-2 TSにすると正常に作成できますが、MPEG-2 TTSにすると作成できません。
ネットワークエンコーダがマルチキャスト配信しているH.264の映像データを、PCのFFmpegで受信して静止画を作成したいと考えています。
エンコーダの設定でコンテナをMPEG-2 TSにすると正常に作成できますが、MPEG-2 TTSにすると作成できません。
FFmpegのオプション等で作成可能なのでしょうか。ご教授お願い致します。
### 発生している問題・エラーメッセージ
```
> ffmpeg -i udp://@239.203.0.80:29000 -ss 1 -t 1 -r 5 -f image2 %02d.jpg
[mpeg @ 0000000001c6eec0] Format mpeg detected only with low score of 25, misdetection possible!
Input #0, mpeg, from 'udp://@239.203.0.80:29000':
 Duration: N/A, start: 23.63250, bitrate: 128kb/s
   Stream #0:0[0x1c0]: Audio: mp2, 48000 Hz, stereo, s16p, 128 kb/s
Output #0, image2, to '%02d.jpg':
Output file #0 does not contain any stream
> ffmpeg -i udp://@239.203.0.80:29000
[mpeg @ 0000000001c6eec0] Format mpeg detected only with low score of 25, misdetection possible!
Input #0, mpeg, from 'udp://@239.203.0.80:29000':
 Duration: N/A, start: 241.024500, bitrate: 128kb/s
   Stream #0:0[0x1c0]: Audio: mp2, 48000 Hz, stereo, s16p, 128 kb/s
At least one output file must be specified
```
### 該当のソースコード
```
ffmpeg -i udp://@239.203.0.80:29000 -ss 1 -t 1 -r 5 -f image2 %02d.jpg
```
### 試したこと
公式で配布されているFFmpegの他、以下の記事を参考にビルドしたものでも試しましたが、結果は変わりませんでした。
[FFMPEG全部入り一撃インストールスクリプト
](http://www.hiroyuki.com/posts/2182665/)
### 補足情報(FW/ツールのバージョンなど)
#### 映像情報
- エンコーダ = MNB780ENC(kubotek)
- 映像 = H.264
- コンテナ = MPEG-2 TTS
- パック数 = 6(コンテナをTTSにすると自動で設定)
- ペイロードタイプ = 103(コンテナをTTSにすると自動電話設定)
- ペイロードタイプ = 103(コンテナをTTSにすると自動設定)
#### 動作環境
- Windows 8.1 Pro
- FFmpeg N-82092
  • FFmpeg

    206 questions

    FFmpegは、動画と音声を交換できるフリーソフトウェアです。UNIX系OSから派生した、MS-DOSから操作するコマンドラインツールです。libavcodecやlibavformat、libswscale、libavfilterなどを含みます。ライセンスは、コンパイルの際のオプションによりLGPLもしくはGPLに決定されます。対応コーデックや使用できるオプションが多く、幅広く利用されています。

1 エラーメッセージを追加

y.nakamura

y.nakamura score 186

2018/06/25 15:24  投稿

FFmpegでMPEG-2 TTSの静止画作成
FFmpegでMPEG-2 TTSの静止画を作成したい
### 前提・実現したいこと
ネットワークエンコーダがマルチキャスト配信している映像データを、PCのFFmpegで受信して静止画を作成したいと考えています。
映像はH.264で、エンコーダの設定でコンテナをMPEG-2 TSにすると正常に作成できますが、MPEG-2 TTSにすると作成できません。
FFmpegのオプション等で作成可能なのでしょうか。ご教授お願い致します。
### 発生している問題・エラーメッセージ
```
> ffmpeg -i udp://@239.203.0.80:29000 -ss 1 -t 1 -r 5 -f image2 %02d.jpg  
[mpeg @ 0000000001c6eec0] Format mpeg detected only with low score of 25, misdetection possible!
Input #0, mpeg, from 'udp://@239.203.0.80:29000':
 Duration: N/A, start: 9001.288500, bitrate: 128kb/s
 Duration: N/A, start: 23.63250, bitrate: 128kb/s
   Stream #0:0[0x1c0]: Audio: mp2, 48000 Hz, stereo, s16p, 128 kb/s
Output #0, image2, to '%02d.jpg':
Output file #0 does not contain any stream
> ffmpeg -i udp://@239.203.0.80:29000
[mpeg @ 0000000001c6eec0] Format mpeg detected only with low score of 25, misdetection possible!
Input #0, mpeg, from 'udp://@239.203.0.80:29000':
 Duration: N/A, start: 241.024500, bitrate: 128kb/s
   Stream #0:0[0x1c0]: Audio: mp2, 48000 Hz, stereo, s16p, 128 kb/s
At least one output file must be specified
```
### 該当のソースコード
```
ffmpeg -i rtp://@<マルチキャストIPアドレス>:<ポート番号> -ss 1 -t 1 -r 5 -f image2 %02d.jpg
ffmpeg -i udp://@239.203.0.80:29000 -ss 1 -t 1 -r 5 -f image2 %02d.jpg
```
### 試したこと
公式で配布されているFFmpegの他、以下の記事を参考にビルドしたものでも試しましたが、結果は変わりませんでした。
[FFMPEG全部入り一撃インストールスクリプト
](http://www.hiroyuki.com/posts/2182665/)
### 補足情報(FW/ツールのバージョンなど)
#### 映像情報
- エンコーダ = MNB780ENC(kubotek)
- 映像 = H.264
- コンテナ = MPEG-2 TTS
- パック数 = 6(コンテナをTTSにすると自動で設定)
- ペイロードタイプ = 103(コンテナをTTSにすると自動電話設定)
#### 動作環境
- Windows 8.1 Pro
- FFmpeg N-82092
  • FFmpeg

    206 questions

    FFmpegは、動画と音声を交換できるフリーソフトウェアです。UNIX系OSから派生した、MS-DOSから操作するコマンドラインツールです。libavcodecやlibavformat、libswscale、libavfilterなどを含みます。ライセンスは、コンパイルの際のオプションによりLGPLもしくはGPLに決定されます。対応コーデックや使用できるオプションが多く、幅広く利用されています。

思考するエンジニアのためのQ&Aサイト「teratail」について詳しく知る