質問をすることでしか得られない、回答やアドバイスがある。

15分調べてもわからないことは、質問しよう!

ただいまの
回答率

88.03%

FFMPEGでの変換「Output file #0 does not contain any stream」で失敗

解決済

回答 1

投稿

  • 評価
  • クリップ 0
  • VIEW 7,996

score 11

recdvb --dev 0 --sid hd --b25 25 10 test.ts

で生成したtsファイルを

ffmpeg -i test.ts -strict -2 wow.mp4


で変換しようとすると

ffmpeg version 2.6 Copyright (c) 2000-2015 the FFmpeg developers
  built with gcc 5.2.1 (Ubuntu 5.2.1-22ubuntu2) 20151010
  configuration: --enable-libx264 --enable-gpl
  libavutil      54. 20.100 / 54. 20.100
  libavcodec     56. 26.100 / 56. 26.100
  libavformat    56. 25.101 / 56. 25.101
  libavdevice    56.  4.100 / 56.  4.100
  libavfilter     5. 11.102 /  5. 11.102
  libswscale      3.  1.101 /  3.  1.101
  libswresample   1.  1.100 /  1.  1.100
  libpostproc    53.  3.100 / 53.  3.100
[mpegts @ 0x309e2c0] PES packet size mismatch
    Last message repeated 7 times
[NULL @ 0x30a21e0] start time for stream 0 is not set in estimate_timings_from_pts
[NULL @ 0x30a2d60] start time for stream 1 is not set in estimate_timings_from_pts
[mpegts @ 0x309e2c0] PES packet size mismatch
    Last message repeated 2 times
[mpegts @ 0x309e2c0] Could not find codec parameters for stream 0 (Video: mpeg2video ([2][0][0][0] / 0x0002), none(tv)): unspecified size
Consider increasing the value for the 'analyzeduration' and 'probesize' options
[mpegts @ 0x309e2c0] Could not find codec parameters for stream 1 (Audio: aac ([15][0][0][0] / 0x000F), 0 channels, fltp): unspecified sample rate
Consider increasing the value for the 'analyzeduration' and 'probesize' options
[mpegts @ 0x309e2c0] Could not find codec parameters for stream 2 (Unknown: none ([6][0][0][0] / 0x0006)): unknown codec
Consider increasing the value for the 'analyzeduration' and 'probesize' options
[mpegts @ 0x309e2c0] Could not find codec parameters for stream 3 (Unknown: none ([6][0][0][0] / 0x0006)): unknown codec
Consider increasing the value for the 'analyzeduration' and 'probesize' options
[mpegts @ 0x309e2c0] Could not find codec parameters for stream 4 (Unknown: none ([13][0][0][0] / 0x000D)): unknown codec
Consider increasing the value for the 'analyzeduration' and 'probesize' options
[mpegts @ 0x309e2c0] Could not find codec parameters for stream 5 (Unknown: none ([13][0][0][0] / 0x000D)): unknown codec
Consider increasing the value for the 'analyzeduration' and 'probesize' options
[mpegts @ 0x309e2c0] Could not find codec parameters for stream 6 (Unknown: none ([13][0][0][0] / 0x000D)): unknown codec
Consider increasing the value for the 'analyzeduration' and 'probesize' options
[mpegts @ 0x309e2c0] Could not find codec parameters for stream 7 (Unknown: none ([13][0][0][0] / 0x000D)): unknown codec
Consider increasing the value for the 'analyzeduration' and 'probesize' options
[mpegts @ 0x309e2c0] Could not find codec parameters for stream 8 (Unknown: none ([13][0][0][0] / 0x000D)): unknown codec
Consider increasing the value for the 'analyzeduration' and 'probesize' options
[mpegts @ 0x309e2c0] Could not find codec parameters for stream 9 (Unknown: none ([13][0][0][0] / 0x000D)): unknown codec
Consider increasing the value for the 'analyzeduration' and 'probesize' options
[mpegts @ 0x309e2c0] Could not find codec parameters for stream 10 (Unknown: none ([13][0][0][0] / 0x000D)): unknown codec
Consider increasing the value for the 'analyzeduration' and 'probesize' options
test.ts: could not find codec parameters
Input #0, mpegts, from 'test.ts':
  Duration: N/A, bitrate: N/A
  Program 1040 
    Stream #0:0[0x111]: Video: mpeg2video ([2][0][0][0] / 0x0002), none(tv), 90k tbr, 90k tbn, 90k tbc
    Stream #0:1[0x112]: Audio: aac ([15][0][0][0] / 0x000F), 0 channels, fltp
    Stream #0:2[0x116]: Unknown: none ([6][0][0][0] / 0x0006)
    Stream #0:3[0x117]: Unknown: none ([6][0][0][0] / 0x0006)
    Stream #0:4[0x511]: Unknown: none ([13][0][0][0] / 0x000D)
    Stream #0:5[0x513]: Unknown: none ([13][0][0][0] / 0x000D)
    Stream #0:6[0x514]: Unknown: none ([13][0][0][0] / 0x000D)
    Stream #0:7[0x611]: Unknown: none ([13][0][0][0] / 0x000D)
    Stream #0:8[0x612]: Unknown: none ([13][0][0][0] / 0x000D)
    Stream #0:9[0x613]: Unknown: none ([13][0][0][0] / 0x000D)
    Stream #0:10[0x711]: Unknown: none ([13][0][0][0] / 0x000D)
Output #0, mp4, to 'wow.mp4':
Output file #0 does not contain any stream


と表示され、完了できません。。
エンコーディングについては一切知識がなく、詰んでます。

どうすれば正常にmp4へ変換できるでしょうか?

  • 気になる質問をクリップする

    クリップした質問は、後からいつでもマイページで確認できます。

    またクリップした質問に回答があった際、通知やメールを受け取ることができます。

    クリップを取り消します

  • 良い質問の評価を上げる

    以下のような質問は評価を上げましょう

    • 質問内容が明確
    • 自分も答えを知りたい
    • 質問者以外のユーザにも役立つ

    評価が高い質問は、TOPページの「注目」タブのフィードに表示されやすくなります。

    質問の評価を上げたことを取り消します

  • 評価を下げられる数の上限に達しました

    評価を下げることができません

    • 1日5回まで評価を下げられます
    • 1日に1ユーザに対して2回まで評価を下げられます

    質問の評価を下げる

    teratailでは下記のような質問を「具体的に困っていることがない質問」、「サイトポリシーに違反する質問」と定義し、推奨していません。

    • プログラミングに関係のない質問
    • やってほしいことだけを記載した丸投げの質問
    • 問題・課題が含まれていない質問
    • 意図的に内容が抹消された質問
    • 過去に投稿した質問と同じ内容の質問
    • 広告と受け取られるような投稿

    評価が下がると、TOPページの「アクティブ」「注目」タブのフィードに表示されにくくなります。

    質問の評価を下げたことを取り消します

    この機能は開放されていません

    評価を下げる条件を満たしてません

    評価を下げる理由を選択してください

    詳細な説明はこちら

    上記に当てはまらず、質問内容が明確になっていない質問には「情報の追加・修正依頼」機能からコメントをしてください。

    質問の評価を下げる機能の利用条件

    この機能を利用するためには、以下の事項を行う必要があります。

回答 1

check解決した方法

0

recdvbを別のものにしたら動作しました。

投稿

  • 回答の評価を上げる

    以下のような回答は評価を上げましょう

    • 正しい回答
    • わかりやすい回答
    • ためになる回答

    評価が高い回答ほどページの上位に表示されます。

  • 回答の評価を下げる

    下記のような回答は推奨されていません。

    • 間違っている回答
    • 質問の回答になっていない投稿
    • スパムや攻撃的な表現を用いた投稿

    評価を下げる際はその理由を明確に伝え、適切な回答に修正してもらいましょう。

15分調べてもわからないことは、teratailで質問しよう!

  • ただいまの回答率 88.03%
  • 質問をまとめることで、思考を整理して素早く解決
  • テンプレート機能で、簡単に質問をまとめられる

関連した質問

同じタグがついた質問を見る