質問をすることでしか得られない、回答やアドバイスがある。

15分調べてもわからないことは、質問しよう!

ただいまの
回答率

88.03%

Node.js child_process.spawnでFFmpegの進捗を取得したい

受付中

回答 0

投稿 編集

  • 評価
  • クリップ 0
  • VIEW 1,358

score 14

Node.js child_process.spawnでFFmpegの進捗を取得したい

Node.jsで動画のエンコードを管理するユーティリティを作っています。
作業の進捗状況を取得するため、最初はログファイルをリクエスト毎に読み取って進捗を計算していました、が
あまりスマートな方法ではないため、以下のようにしました

(略)
var args = []
var inputfile = "input.mp4"
var outputfile = "output.mp4"

args.push('-i', inputfile);

args.push('-y', '-nostdin', '-s', '128x72', outputname);

var convert = child_process.spawn ('ffmpeg', args)

convert.stdout.on('data', function(data) {
    console.log(data);
});
(略)


このコードで期待される動作は、FFmpegのログが出ることです、が
ログ出力が以下のように止まってしまします。

Input #0, mov,mp4,m4a,3gp,3g2,mj2, from '01.mp4':
  Metadata:
    major_brand     : isom
    minor_version   : 512
    compatible_brands: isomiso2avc1mp41
    encoder         : Lavf57.83.100
  Duration: 00:30:03.50, start: 0.000000, bitrate: 1023 kb/s
    Stream #0:0(und): Video: h264 (High) (avc1 / 0x31637661), yuv420p, 1280x720 [SAR 1:1 DAR 16:9], 886 kb/s, 29.97 fps, 29.97 tbr, 30k tbn, 59.94 tbc (default)
    Metadata:
      handler_name    : VideoHandler
    Stream #0:1(und): Audio: aac (LC) (mp4a / 0x6134706D), 48000 Hz, stereo, fltp, 128 kb/s (default)
    Metadata:
      handler_name    : SoundHandler
//ここで止まってしまう(処理時自体は進んでいる)

本来であればこのあとに進捗の部分が出るはずなのですが
出力を上書きしている部分が出てこないようです

期待した出力

Input #0, mov,mp4,m4a,3gp,3g2,mj2, from '01.mp4':
  Metadata:
    major_brand     : isom
    minor_version   : 512
    compatible_brands: isomiso2avc1mp41
    encoder         : Lavf57.83.100
  Duration: 00:30:03.50, start: 0.000000, bitrate: 1023 kb/s
    Stream #0:0(und): Video: h264 (High) (avc1 / 0x31637661), yuv420p, 1280x720 [SAR 1:1 DAR 16:9], 886 kb/s, 29.97 fps, 29.97 tbr, 30k tbn, 59.94 tbc (default)
    Metadata:
      handler_name    : VideoHandler
    Stream #0:1(und): Audio: aac (LC) (mp4a / 0x6134706D), 48000 Hz, stereo, fltp, 128 kb/s (default)
    Metadata:
      handler_name    : SoundHandler
//普通のコマンド実行時では一行で表されるところ
frame= 3778 fps=760 q=-1.0 Lsize=    2825kB time=00:02:06.31 bitrate= 183.2kbits/s speed=25.4x
rame= 3778 fps=760 q=-1.0 Lsize=    2825kB time=00:02:06.31 bitrate= 183.2kbits/s speed=25.4x
rame= 3778 fps=760 q=-1.0 Lsize=    2825kB time=00:02:06.31 bitrate= 183.2kbits/s speed=25.4x
rame= 3778 fps=760 q=-1.0 Lsize=    2825kB time=00:02:06.31 bitrate= 183.2kbits/s speed=25.4x
rame= 3778 fps=760 q=-1.0 Lsize=    2825kB time=00:02:06.31 bitrate= 183.2kbits/s speed=25.4x
rame= 3778 fps=760 q=-1.0 Lsize=    2825kB time=00:02:06.31 bitrate= 183.2kbits/s speed=25.4x


どのようにすれば出力をキャッチできるようになるのでしょうか。
皆様のお力をどうかお貸しください、お願いいたします。

  • 気になる質問をクリップする

    クリップした質問は、後からいつでもマイページで確認できます。

    またクリップした質問に回答があった際、通知やメールを受け取ることができます。

    クリップを取り消します

  • 良い質問の評価を上げる

    以下のような質問は評価を上げましょう

    • 質問内容が明確
    • 自分も答えを知りたい
    • 質問者以外のユーザにも役立つ

    評価が高い質問は、TOPページの「注目」タブのフィードに表示されやすくなります。

    質問の評価を上げたことを取り消します

  • 評価を下げられる数の上限に達しました

    評価を下げることができません

    • 1日5回まで評価を下げられます
    • 1日に1ユーザに対して2回まで評価を下げられます

    質問の評価を下げる

    teratailでは下記のような質問を「具体的に困っていることがない質問」、「サイトポリシーに違反する質問」と定義し、推奨していません。

    • プログラミングに関係のない質問
    • やってほしいことだけを記載した丸投げの質問
    • 問題・課題が含まれていない質問
    • 意図的に内容が抹消された質問
    • 過去に投稿した質問と同じ内容の質問
    • 広告と受け取られるような投稿

    評価が下がると、TOPページの「アクティブ」「注目」タブのフィードに表示されにくくなります。

    質問の評価を下げたことを取り消します

    この機能は開放されていません

    評価を下げる条件を満たしてません

    評価を下げる理由を選択してください

    詳細な説明はこちら

    上記に当てはまらず、質問内容が明確になっていない質問には「情報の追加・修正依頼」機能からコメントをしてください。

    質問の評価を下げる機能の利用条件

    この機能を利用するためには、以下の事項を行う必要があります。

まだ回答がついていません

15分調べてもわからないことは、teratailで質問しよう!

  • ただいまの回答率 88.03%
  • 質問をまとめることで、思考を整理して素早く解決
  • テンプレート機能で、簡単に質問をまとめられる

関連した質問

同じタグがついた質問を見る