質問をすることでしか得られない、回答やアドバイスがある。

15分調べてもわからないことは、質問しよう!

ただいまの
回答率

88.04%

ffmpegで作成した動画が再生できない

受付中

回答 2

投稿

  • 評価
  • クリップ 0
  • VIEW 3,320

score 281

Main.000.png
Main.001.png
Main.002.png
...
というファイルが大量にあります。
この画像をmp4にしようとffmpegで処理したところ生成されたmp4を再生することができません。
次のコマンドを実行しました。

ffmpeg -i Main.t%03d.png Main.mp4


実行のログとして次が表示されました。
出力されたファイルはeogで開くとエラーが出ます。
いったい何を間違えているのでしょうか?

ffmpeg version 4.0 Copyright (c) 2000-2018 the FFmpeg developers
  built with gcc 7.2.0 (crosstool-NG fa8859cb)
  configuration: --prefix=/home/user/anaconda3 --cc=/tmp/build/80754af9/ffmpeg_1526323631431/_build_env/bin/x86_64-conda_cos6-linux-gnu-cc --disable-doc --enable-shared --enable-static --enable-zlib --enable-pic --enable-gpl --enable-version3 --disable-nonfree --enable-hardcoded-tables --enable-avresample --enable-libfreetype --disable-openssl --disable-gnutls --enable-libvpx --enable-pthreads --enable-libopus --enable-postproc --disable-libx264
  libavutil      56. 14.100 / 56. 14.100
  libavcodec     58. 18.100 / 58. 18.100
  libavformat    58. 12.100 / 58. 12.100
  libavdevice    58.  3.100 / 58.  3.100
  libavfilter     7. 16.100 /  7. 16.100
  libavresample   4.  0.  0 /  4.  0.  0
  libswscale      5.  1.100 /  5.  1.100
  libswresample   3.  1.100 /  3.  1.100
  libpostproc    55.  1.100 / 55.  1.100
Input #0, image2, from 'Main.t%03d.png':
  Duration: 00:00:30.00, start: 0.000000, bitrate: N/A
    Stream #0:0: Video: png, rgb24(pc), 4001x1, 25 fps, 25 tbr, 25 tbn, 25 tbc
File 'Main.mp4' already exists. Overwrite ? [y/N] y
Stream mapping:
  Stream #0:0 -> #0:0 (png (native) -> mpeg4 (native))
Press [q] to stop, [?] for help
Output #0, mp4, to 'Main.mp4':
  Metadata:
    encoder         : Lavf58.12.100
    Stream #0:0: Video: mpeg4 (mp4v / 0x7634706D), yuv420p, 4001x1, q=2-31, 200 kb/s, 25 fps, 12800 tbn, 25 tbc
    Metadata:
      encoder         : Lavc58.18.100 mpeg4
    Side data:
      cpb: bitrate max/min/avg: 0/0/200000 buffer size: 0 vbv_delay: -1
frame=  750 fps=0.0 q=2.0 Lsize=     611kB time=00:00:29.96 bitrate= 167.0kbits/s speed=58.6x
video:607kB audio:0kB subtitle:0kB other streams:0kB global headers:0kB muxing overhead: 0.661340%
  • 気になる質問をクリップする

    クリップした質問は、後からいつでもマイページで確認できます。

    またクリップした質問に回答があった際、通知やメールを受け取ることができます。

    クリップを取り消します

  • 良い質問の評価を上げる

    以下のような質問は評価を上げましょう

    • 質問内容が明確
    • 自分も答えを知りたい
    • 質問者以外のユーザにも役立つ

    評価が高い質問は、TOPページの「注目」タブのフィードに表示されやすくなります。

    質問の評価を上げたことを取り消します

  • 評価を下げられる数の上限に達しました

    評価を下げることができません

    • 1日5回まで評価を下げられます
    • 1日に1ユーザに対して2回まで評価を下げられます

    質問の評価を下げる

    teratailでは下記のような質問を「具体的に困っていることがない質問」、「サイトポリシーに違反する質問」と定義し、推奨していません。

    • プログラミングに関係のない質問
    • やってほしいことだけを記載した丸投げの質問
    • 問題・課題が含まれていない質問
    • 意図的に内容が抹消された質問
    • 過去に投稿した質問と同じ内容の質問
    • 広告と受け取られるような投稿

    評価が下がると、TOPページの「アクティブ」「注目」タブのフィードに表示されにくくなります。

    質問の評価を下げたことを取り消します

    この機能は開放されていません

    評価を下げる条件を満たしてません

    評価を下げる理由を選択してください

    詳細な説明はこちら

    上記に当てはまらず、質問内容が明確になっていない質問には「情報の追加・修正依頼」機能からコメントをしてください。

    質問の評価を下げる機能の利用条件

    この機能を利用するためには、以下の事項を行う必要があります。

回答 2

+1

ひょっとして

ffmpeg -i "Main.%03d.png" Main.mp4

投稿

  • 回答の評価を上げる

    以下のような回答は評価を上げましょう

    • 正しい回答
    • わかりやすい回答
    • ためになる回答

    評価が高い回答ほどページの上位に表示されます。

  • 回答の評価を下げる

    下記のような回答は推奨されていません。

    • 間違っている回答
    • 質問の回答になっていない投稿
    • スパムや攻撃的な表現を用いた投稿

    評価を下げる際はその理由を明確に伝え、適切な回答に修正してもらいましょう。

  • 2018/09/11 09:54

    ""をつけて実行してもダメでした(ログは完全に同じ)。回答ありがとうございます。

    キャンセル

  • 2018/09/11 10:12

    いつも質問してばかりで申し訳ないのが悩みです。しかし、回答できる質問がほとんどないという・・・。

    キャンセル

0

コーディクとピクセルフォーマットは指定した方がいいと思います。あと、サイズが4001x1になってますが、オリジナルの画像はこの大きさなんですか?libx264の場合、widthが2で割れないとエラーになります。

ffmpeg -i Main.%03d.png -vcodec libx264 -pix_fmt yuv420p -s 854×480 Main.mp4

投稿

  • 回答の評価を上げる

    以下のような回答は評価を上げましょう

    • 正しい回答
    • わかりやすい回答
    • ためになる回答

    評価が高い回答ほどページの上位に表示されます。

  • 回答の評価を下げる

    下記のような回答は推奨されていません。

    • 間違っている回答
    • 質問の回答になっていない投稿
    • スパムや攻撃的な表現を用いた投稿

    評価を下げる際はその理由を明確に伝え、適切な回答に修正してもらいましょう。

  • 2018/09/11 18:34

    オリジナルのサイズは4001×1です。このままでは(libx24では)動かないということでしょうか。

    キャンセル

  • 2018/09/11 20:23

    やってみればわかりますが、エラー出ますよ。

    キャンセル

15分調べてもわからないことは、teratailで質問しよう!

  • ただいまの回答率 88.04%
  • 質問をまとめることで、思考を整理して素早く解決
  • テンプレート機能で、簡単に質問をまとめられる

関連した質問

同じタグがついた質問を見る